WEY车友会

 找回密码
 立即注册

QQ登录

只需一步,快速开始

扫码登录更安全

[无损音频] 朴树 - 生如夏花-美卡音像引进首版-WAV整轨

[复制链接]

参加活动:1

组织活动:5

169

主题

1433

帖子

1万

积分

超级版主

Rank: 8Rank: 8

积分
13005
发表于 2018-4-21 21:01:23 | 显示全部楼层 |阅读模式

马上注册,结交更多好友,享用更多功能,让你轻松玩转社区。

您需要 登录 才可以下载或查看,没有帐号?立即注册

x
1.png   [0 u- G9 k7 }$ U7 n5 k- ^

: o7 D/ n4 U  Y1 PCD: 朴树 - 生如夏花 [MKCD-T1942]$ f# b$ M2 [- ]7 ^. V3 B# z4 y
     YEAR: 2003
  R/ X9 Z1 ^; b$ J/ W# t
) [$ S1 _: P/ V' z* @- \01. 傻子才悲伤    [0:03:59.53]
+ \8 C' u/ c% L) ]5 Q- h. x' [02. 我爱你,再见    [0:04:52.23]% {6 k; |- ]  H" o3 W7 o% {0 i
03. 傲慢的上校    [0:04:52.32]
2 [: ?- k3 v7 B04. 来不及    [0:05:46.14]  X' B: b9 H( q2 D! k+ q
05. Colorful Days    [0:03:55.20]
) D9 ?7 b5 {# `" @, {06. 今夜的滋味    [0:04:09.09]
0 F8 K" |5 J9 J$ t07. 苏珊的舞鞋    [0:05:05.27]
/ _. J6 F' Z( S08. 生如夏花    [0:04:54.49]
& `1 k* b3 H/ V) P% U% e3 ?09. 且听风吟    [0:03:43.41]
% e3 p) z# m! e& R: D4 K' f6 V( f10. La Perte    [0:04:30.19]
6 C, `7 A+ D, W& n11. 她在睡梦中    [0:03:32.27]
  y& T! }: ?* Q4 w4 n5 G! x***************************************************************
) X% o, `7 Q4 M" d/ B8 `2 kExact Audio Copy V1.1 from 23. June 2015
5 Z$ z" S( n0 ~- ^8 N" s7 S$ o+ a) g& K# j6 s# O$ |0 q: r+ S
EAC extraction logfile from 6. October 2016, 9:31
. [" Z- l  o9 X/ `5 R4 G* E
: p+ S6 n2 s$ o/ s1 j" \6 n朴树 / 生如夏花 [MKCD-T1942]2 e( \7 ]# y3 i  u/ V

9 z& P; v  P! Z; dUsed drive  : TEAC    CD-W540E   Adapter: 0  ID: 0$ ~6 {: |( x0 l# J: k
- U( b5 U& {, l' |) q' O/ W
Read mode               : Secure
# O, ~4 z6 o+ x. ~9 t& h' [  O- gUtilize accurate stream : Yes  q8 z9 v1 S: X6 [
Defeat audio cache      : Yes; t' A0 m* B- U
Make use of C2 pointers : No; Z6 D$ ^$ }  X% N. M( A" m, ~
8 h- H' k1 O  {3 r
Read offset correction                      : 686
; L! ?8 W( ]; L6 M: `Overread into Lead-In and Lead-Out          : No
) g1 O" B3 l/ ]% A) P9 P  bFill up missing offset samples with silence : Yes; h! n5 ?8 q9 `7 W1 D
Delete leading and trailing silent blocks   : No
: u+ L% Q" c) f* ^( h3 ONull samples used in CRC calculations       : Yes
9 p1 X4 K* ]! r+ tUsed interface                              : Installed external ASPI interface! b4 l) G9 {6 R( F

# K0 b: [  v: `6 z  }Used output format : Internal WAV Routines8 x+ |* X. ^5 D/ [' V
Sample format      : 44.100 Hz; 16 Bit; Stereo
% G: H) f0 ^, q# C& ]) a3 L/ ]
$ S% |9 J3 O4 L5 z- R) ~( G( R  p. p' Z5 R
TOC of the extracted CD& `% J; D4 `9 V/ H2 v% X
$ L( N- s0 y" B' q# |5 M
    Track |   Start  |  Length  | Start sector | End sector & ?# y5 j2 ?/ b1 J2 B( ?1 r4 ]
   ---------------------------------------------------------
0 Q( ]; g/ r0 W# b       1  |  0:00.00 |  3:59.53 |         0    |    17977   : t  @! @8 _* R9 q, O% R) y
       2  |  3:59.53 |  4:52.23 |     17978    |    39900   8 b1 _- X- h6 B) L. S, F
       3  |  8:52.01 |  4:52.32 |     39901    |    61832   
# O3 v& v7 @4 c- a. t  H       4  | 13:44.33 |  5:46.14 |     61833    |    87796   - T4 n* C& y2 {6 T- w) ?2 R
       5  | 19:30.47 |  3:55.20 |     87797    |   105441   
& a( x7 J) l( \! ~/ e# Q4 d4 R) X9 C       6  | 23:25.67 |  4:09.09 |    105442    |   124125   
6 Q6 P5 L; r3 X6 ^       7  | 27:35.01 |  5:05.27 |    124126    |   147027   
  w$ [8 p- `, f0 Z& k; v       8  | 32:40.28 |  4:54.49 |    147028    |   169126   , P0 y, K; q; X2 t$ m# _; G/ v
       9  | 37:35.02 |  3:43.41 |    169127    |   185892   
: Z* M; Q7 ?, A; K      10  | 41:18.43 |  4:30.19 |    185893    |   206161   - l3 v9 r$ |. I2 ~7 w$ y$ d
      11  | 45:48.62 |  3:32.27 |    206162    |   222088   : b/ R# Y4 ~& m) p: ]. H* a
1 S% z5 n1 `1 S0 q' J
% @; p! ?) k. V# ~  t  f% W4 E
Range status and errors
; S% F* s: Y' a: E+ u' Y" f$ d; O; O) E! J  a7 _( v3 k  p
Selected range' @8 @7 C7 ^3 p( ]  A2 E( o

7 j. f% i4 m8 @+ y! e, J7 R- J0 A4 W    Filename D:\Music\朴树 - 生如夏花 [MKCD-T1942](美卡音像引进首版)Chris Wang原创\朴树 - 生如夏花 [MKCD-T1942].wav
. o- t* a5 v, M2 B1 v
, ^5 s+ P7 D/ r5 C( M    Peak level 100.0 %
1 F0 o# i  k; z' l2 i+ `1 A/ ^    Extraction speed 1.2 X/ c" G9 H8 |2 Y) {) }6 N8 F
    Range quality 100.0 %
# `6 t  a4 J4 P* i* I/ Z    Copy CRC 80B0B5ED, W" W" A+ V* c
    Copy OK
8 H# K0 K+ @% ]  j2 [" P+ ]  N1 H3 ^# T
No errors occurred
. e( ?- ]" y  h$ O) N) K
! r! O7 U% t& t4 P4 {+ f2 b$ B9 M( d0 o( ^) M
AccurateRip summary% g$ |& Y+ W1 [5 d* I1 w8 y
$ N- ^1 J+ n. B/ i- p9 F6 r
Track  1  accurately ripped (confidence 4)  [A6020CAD]  (AR v2)
8 w9 k4 O/ ^( ?Track  2  accurately ripped (confidence 4)  [B6DC1285]  (AR v2)
6 Y5 D# {' M! h" T1 ATrack  3  accurately ripped (confidence 4)  [5C7CDB1A]  (AR v2)1 M  B$ Q# o' b0 m" z! i
Track  4  accurately ripped (confidence 4)  [2D0C8A37]  (AR v2)
- u- \3 A2 E9 b- y1 HTrack  5  accurately ripped (confidence 4)  [08788222]  (AR v2)
  I  ^  c; B- b$ m! G% O! NTrack  6  accurately ripped (confidence 4)  [FF6C11E9]  (AR v2)
  W1 @+ e; E; C/ ]. O3 h1 qTrack  7  accurately ripped (confidence 4)  [B2E9678C]  (AR v2): v9 H$ O$ o" Z1 h: h
Track  8  accurately ripped (confidence 4)  [5AD309BB]  (AR v2)
/ ]9 t5 }; `% s( `Track  9  accurately ripped (confidence 4)  [F8F876F1]  (AR v2)
; \3 J, [" F6 O- u# _Track 10  accurately ripped (confidence 4)  [F311C328]  (AR v2)
6 z+ Y  O1 I' f/ K8 fTrack 11  accurately ripped (confidence 4)  [04145CC1]  (AR v2)
! z5 T; w: u8 ]3 e
  \2 g) r+ C, X/ ]7 p. a! Y0 ZAll tracks accurately ripped5 A1 B% K! a3 p0 y. x% c
6 _1 P/ T2 T0 n" S( }
End of status report
! ?* H% O! p; y/ |; Q- _% k& l
; A7 p4 X) Y% O1 q* e---- CUETools DB Plugin V2.1.6
/ o3 y# I! K  o. C$ c; ]1 V( _/ V7 w5 P  C7 U* m$ O& K6 V4 n
[CTDB TOCID: 1NUQFvpRHAXoF_N10lD6enb6LEU-] found) N6 {( e2 s" C/ N& \
Submit result: 1NUQFvpRHAXoF_N10lD6enb6LEU- has been confirmed
: E1 i$ m8 z. c# MTrack | CTDB Status, c" y$ q$ O: n+ K  v, M' @! r
1   | (30/30) Accurately ripped
) o) q+ ^: x# ?" G 2   | (30/30) Accurately ripped
0 R7 O1 f" }+ s3 w' j 3   | (30/30) Accurately ripped
: Q; O+ ]# |( a; h6 o# M/ R 4   | (30/30) Accurately ripped2 ?8 h! W( W7 p# x) y* c/ O
5   | (30/30) Accurately ripped' h2 z1 ~  f. G) x2 ^- S
6   | (30/30) Accurately ripped* J1 u$ w; e& A; Z. t
7   | (30/30) Accurately ripped
3 M& v( D7 c/ z6 s 8   | (30/30) Accurately ripped
$ N- ?- q, }' h# h1 z7 m; ? 9   | (30/30) Accurately ripped
/ e9 F9 E; x: K; H% x+ I( i0 ]% e10   | (28/30) Accurately ripped- a" ~; \2 `$ U; u7 p
11   | (30/30) Accurately ripped
) k# Y; C9 f' F0 r+ h# d! |( L& ~+ z( ^7 Q/ R- k

# S4 t. U  c8 p: \9 K: n' I: ]* o==== Log checksum 19207908511CD6A6D296D2A175EDF31C2465F6B69FC0E20650AEEA2C271090C8 ====
2 f. f" e6 \( g: P9 q$ v! u7 {4 |+ y1 o7 L
下载地址:
游客,如果您要查看本帖隐藏内容请回复
$ i( A& d& B( y- Q& ^6 |* c' Q4 ?
& `1 k+ {: c+ n  K! T
! o  N, h- b* h! u- g
  Z3 U# |  j8 J7 M# t
回复

使用道具 举报

参加活动:0

组织活动:0

5

主题

34

帖子

275

积分

1.5T

Rank: 3Rank: 3

积分
275
发表于 2018-4-25 16:32:05 | 显示全部楼层
我要下载! ]. ]+ d0 d9 F+ v! q/ v7 k7 v
回复 支持 反对

使用道具 举报

参加活动:0

组织活动:0

0

主题

8

帖子

39

积分

1.0T

Rank: 1

积分
39
发表于 2018-4-25 20:33:09 | 显示全部楼层
我要下载7 f0 h$ [4 ^" f% T+ Q) i
回复 支持 反对

使用道具 举报

参加活动:0

组织活动:0

2

主题

13

帖子

72

积分

1.3T

Rank: 2

积分
72
发表于 2018-4-29 21:11:49 | 显示全部楼层
我要下载% D4 i9 j6 D6 m$ o  s- y
回复 支持 反对

使用道具 举报

参加活动:0

组织活动:0

0

主题

2

帖子

20

积分

1.0T

Rank: 1

积分
20
QQ
发表于 2018-5-9 11:03:05 | 显示全部楼层
我要下载,我要下载,我要下载
回复 支持 反对

使用道具 举报

参加活动:0

组织活动:0

0

主题

1

帖子

8

积分

1.0T

Rank: 1

积分
8
发表于 2018-5-28 02:28:43 来自手机 | 显示全部楼层
下载不了,为什么会这样了
回复 支持 反对

使用道具 举报

参加活动:0

组织活动:0

0

主题

4

帖子

24

积分

1.0T

Rank: 1

积分
24
发表于 2018-6-1 15:11:40 | 显示全部楼层
我要下载
3 P1 i: x7 l! n8 X
回复 支持 反对

使用道具 举报

您需要登录后才可以回帖 登录 | 立即注册

本版积分规则

关闭

站长推荐上一条 /1 下一条