车友会网站+APP平台寻找下一任管理员,期待相同志向的你,整站全部出售

WEY车友会

 找回密码
 立即注册

QQ登录

只需一步,快速开始

扫码登录更安全

[无损音频] 朴树 - 生如夏花-美卡音像引进首版-WAV整轨

[复制链接]

参加活动:1

组织活动:5

162

主题

1285

帖子

1万

积分

管理员

Rank: 9Rank: 9Rank: 9

积分
10836
发表于 2018-4-21 21:01:23 | 显示全部楼层 |阅读模式

马上注册,结交更多好友,享用更多功能,让你轻松玩转社区。

您需要 登录 才可以下载或查看,没有帐号?立即注册

x
1.png 8 {7 W- p$ X4 W$ F  J
, k5 ~* e0 @# T: g  F) q$ ^- G3 y
CD: 朴树 - 生如夏花 [MKCD-T1942]4 a' H4 l' p3 V3 ?3 D
     YEAR: 2003
4 C- `* U( r" _# o+ c. w8 N$ U8 Y
; l/ R; o/ u8 S8 r% l! j$ F01. 傻子才悲伤    [0:03:59.53]1 M" ?! O7 e$ {
02. 我爱你,再见    [0:04:52.23]
1 _# e8 \' D6 d( e. O! N# h* U& A9 E03. 傲慢的上校    [0:04:52.32]
& t2 {! [: v: p7 w0 U6 X# u! z/ G04. 来不及    [0:05:46.14]
4 M2 V. X) K8 M" Z05. Colorful Days    [0:03:55.20]
# e1 O3 E3 P, j06. 今夜的滋味    [0:04:09.09]: f- J! K0 z0 ~1 V% v+ Z! `
07. 苏珊的舞鞋    [0:05:05.27]* z$ E, \3 `+ ?+ d2 ~" S% T
08. 生如夏花    [0:04:54.49]7 }7 m$ i: g7 Q3 q5 d
09. 且听风吟    [0:03:43.41]+ c3 z) J, i) x4 u, j
10. La Perte    [0:04:30.19]: [, W* _1 y2 E/ o7 ]' U: M' [" G7 s
11. 她在睡梦中    [0:03:32.27]% V: i' R( D- \: _, j* k
***************************************************************$ ~5 ~% b4 _9 @/ I: c
Exact Audio Copy V1.1 from 23. June 2015# W! E3 {# [( R2 N0 S

( Z% H  ~7 M; |2 f+ Y+ {4 WEAC extraction logfile from 6. October 2016, 9:31
  E3 t/ s/ C2 U$ ?4 w& @7 `* W6 A7 K8 ~8 ]
朴树 / 生如夏花 [MKCD-T1942]- K# o4 d6 l+ C+ Z7 N
, m9 E5 r4 s& E- V" S) n1 n3 p
Used drive  : TEAC    CD-W540E   Adapter: 0  ID: 0$ q- A3 c2 w2 ^6 k1 f

) M* I  G5 |, g& d/ b: h, lRead mode               : Secure
% ]- Y2 q) J9 _; L( sUtilize accurate stream : Yes) ^$ a* X( F# k8 L$ |; [
Defeat audio cache      : Yes# h/ w$ [& ^. {* a
Make use of C2 pointers : No, V1 t& W, z7 u% u

; o+ N, M+ ?. \* R6 Y! yRead offset correction                      : 686
. G0 `+ G' `' N+ g0 I( ?7 uOverread into Lead-In and Lead-Out          : No
5 P* I4 d* Q9 i) ?. F9 x4 \Fill up missing offset samples with silence : Yes
- ~# |) p, `* p8 H7 ?Delete leading and trailing silent blocks   : No
2 E% M8 B$ [/ M' }0 L) o& g, K3 r! n4 lNull samples used in CRC calculations       : Yes
: @9 ]  m" R' L! GUsed interface                              : Installed external ASPI interface9 H* B* d" ]4 k) q# L% P

+ o/ p. v( B3 @; Z1 i$ n! uUsed output format : Internal WAV Routines
* X1 ?, G/ `% p8 i8 |Sample format      : 44.100 Hz; 16 Bit; Stereo9 L- }  _0 c" H% D5 S' o) N# Q

' u; P' N9 q0 U* k
2 T0 V8 i- q+ Q/ [6 Q, tTOC of the extracted CD
; S' \: C' w: L; Q8 u
, @* o0 e- n5 D0 f( q    Track |   Start  |  Length  | Start sector | End sector
7 E7 f4 L9 T/ ^0 @! j+ C   ---------------------------------------------------------
1 }, V, F+ Q8 {) @8 j! X       1  |  0:00.00 |  3:59.53 |         0    |    17977   
) {8 d: a" Y* [+ {       2  |  3:59.53 |  4:52.23 |     17978    |    39900   1 g5 B& X& B7 a& x
       3  |  8:52.01 |  4:52.32 |     39901    |    61832   ) J4 r0 {, h5 L% e' Y
       4  | 13:44.33 |  5:46.14 |     61833    |    87796   : t  H4 _; B  {: t
       5  | 19:30.47 |  3:55.20 |     87797    |   105441   
/ @# E4 ?0 b6 c% W       6  | 23:25.67 |  4:09.09 |    105442    |   124125   , `& e% |% @+ `: J+ G
       7  | 27:35.01 |  5:05.27 |    124126    |   147027   
6 E: v; X3 |; ]! d5 [6 `       8  | 32:40.28 |  4:54.49 |    147028    |   169126   3 l  d0 T7 O) s4 C! p
       9  | 37:35.02 |  3:43.41 |    169127    |   185892   5 _5 g. C1 O+ Z1 y0 ^# j
      10  | 41:18.43 |  4:30.19 |    185893    |   206161   6 e1 m  G$ q0 I
      11  | 45:48.62 |  3:32.27 |    206162    |   222088   0 [5 C8 T/ X& r) ]
0 R  D! q1 h) b
/ t5 y: u2 ^' G+ M& y
Range status and errors
/ ?6 s1 V2 @/ s8 ]1 c7 }7 {
$ X! e) R) f: p; ZSelected range
0 n6 {, x: e. K) _1 N, C% ]" n' U  X% t
    Filename D:\Music\朴树 - 生如夏花 [MKCD-T1942](美卡音像引进首版)Chris Wang原创\朴树 - 生如夏花 [MKCD-T1942].wav5 z/ q3 U$ Z  {  ?
! M6 H7 H  v: t/ {
    Peak level 100.0 %: D/ u" }% |. |$ N8 m3 s8 V
    Extraction speed 1.2 X8 n, f* I9 }; p0 y& k
    Range quality 100.0 %
2 q4 K9 Y$ w% S' K    Copy CRC 80B0B5ED
4 ?5 s3 x' v* l; R  U& ~    Copy OK
$ \+ E. z8 p+ ~' u+ j# e. J; a
& i" R/ ~0 Y; Y+ u1 KNo errors occurred
: x7 v8 B4 t7 B5 W( _$ u& f: G) v6 k& m5 ]3 u
% d5 y9 a; {: f2 W
AccurateRip summary$ d- w9 W! _7 q+ p) ^

' E+ U3 n; g4 T: J0 jTrack  1  accurately ripped (confidence 4)  [A6020CAD]  (AR v2)
( g2 @/ T& m6 Q: L: VTrack  2  accurately ripped (confidence 4)  [B6DC1285]  (AR v2)% V3 g8 D4 I- P$ J  H% O% B) O: S
Track  3  accurately ripped (confidence 4)  [5C7CDB1A]  (AR v2)
: q6 o. Y; p, y, OTrack  4  accurately ripped (confidence 4)  [2D0C8A37]  (AR v2). B( B8 N+ I' |% u& @8 S
Track  5  accurately ripped (confidence 4)  [08788222]  (AR v2)- W8 O7 H( P  ?/ I6 l; N
Track  6  accurately ripped (confidence 4)  [FF6C11E9]  (AR v2)1 D, i: Q/ U% c- \4 b1 [6 X
Track  7  accurately ripped (confidence 4)  [B2E9678C]  (AR v2)
% y" r  P8 T9 e4 N4 r2 O- X7 y9 T. sTrack  8  accurately ripped (confidence 4)  [5AD309BB]  (AR v2)
" i; M' h# V! TTrack  9  accurately ripped (confidence 4)  [F8F876F1]  (AR v2)
6 r' D# |* G4 k5 g1 ETrack 10  accurately ripped (confidence 4)  [F311C328]  (AR v2)# c$ E( H# G* C' Q
Track 11  accurately ripped (confidence 4)  [04145CC1]  (AR v2)0 `2 o8 h* v; g! I4 V4 n/ w- I8 z
/ E" b* I6 s8 _; T1 i4 q
All tracks accurately ripped
/ M3 t, S9 |# C) m/ K8 B' p$ k8 V  C% ~5 _/ y& r" x
End of status report0 M- A% a3 e1 O8 a
- B9 O1 J! s, R0 A/ O& H
---- CUETools DB Plugin V2.1.6
+ a0 y8 H+ f$ ^& |/ o  X
! y' w# w7 m! t. @2 O. K& @[CTDB TOCID: 1NUQFvpRHAXoF_N10lD6enb6LEU-] found4 h) ?# Q  p: H7 b. V  c' f
Submit result: 1NUQFvpRHAXoF_N10lD6enb6LEU- has been confirmed$ h# D  T; J5 v! c
Track | CTDB Status
! B" m/ w! T0 v! z5 X: H 1   | (30/30) Accurately ripped
2 Y. H# S7 |( ]- y 2   | (30/30) Accurately ripped
4 l1 {5 U; s3 D' j2 w 3   | (30/30) Accurately ripped+ L( k  E! b1 ~+ z) ^8 w
4   | (30/30) Accurately ripped
: A; M' c) q  |  ~. G; M& N 5   | (30/30) Accurately ripped
8 f) w. y4 Q  R' {$ ]. L+ T 6   | (30/30) Accurately ripped
9 C1 L2 h) d7 Z 7   | (30/30) Accurately ripped
; Q2 q2 E9 I2 I& d( j 8   | (30/30) Accurately ripped
3 p4 `! C5 M/ z5 p; a 9   | (30/30) Accurately ripped; e2 N* ]) a2 j) f  b' A2 E
10   | (28/30) Accurately ripped) k: }/ m0 H' q
11   | (30/30) Accurately ripped- e% D2 ~) l% z9 G" e: D; c( d0 [" `* }. F
% k9 r/ E1 J  g
, j& |2 ?- f+ Y" ~
==== Log checksum 19207908511CD6A6D296D2A175EDF31C2465F6B69FC0E20650AEEA2C271090C8 ====
) p9 |% X3 \, a  z9 t' c. J
3 E: R/ y7 I& Z, |下载地址:
游客,如果您要查看本帖隐藏内容请回复

+ F1 _4 y; G) z% `/ O7 {" c

: G3 b# v  l. a' T) X; U5 U1 ~1 Y0 b$ G) m4 r$ j- m

$ b5 n5 i' g; j+ b$ N' J/ {! k
回复

使用道具 举报

参加活动:0

组织活动:0

4

主题

33

帖子

220

积分

1.5T

Rank: 3Rank: 3

积分
220
发表于 2018-4-25 16:32:05 | 显示全部楼层
我要下载$ @3 a' I" E2 o9 l0 D8 M8 t
来自安卓客户端来自安卓客户端
回复

使用道具 举报

参加活动:0

组织活动:0

0

主题

8

帖子

39

积分

1.0T

Rank: 1

积分
39
发表于 2018-4-25 20:33:09 | 显示全部楼层
我要下载0 B) o4 J0 {( v" Z5 Y5 B
来自苹果客户端来自苹果客户端
回复

使用道具 举报

参加活动:0

组织活动:0

2

主题

13

帖子

72

积分

1.3T

Rank: 2

积分
72
发表于 2018-4-29 21:11:49 | 显示全部楼层
我要下载
- k5 j# {& a% f! H2 m2 o
来自苹果客户端来自苹果客户端
回复

使用道具 举报

参加活动:0

组织活动:0

0

主题

2

帖子

20

积分

1.0T

Rank: 1

积分
20
QQ
发表于 2018-5-9 11:03:05 | 显示全部楼层
我要下载,我要下载,我要下载
回复

使用道具 举报

参加活动:0

组织活动:0

0

主题

1

帖子

8

积分

1.0T

Rank: 1

积分
8
发表于 2018-5-28 02:28:43 来自手机 | 显示全部楼层
下载不了,为什么会这样了
回复

使用道具 举报

参加活动:0

组织活动:0

0

主题

4

帖子

24

积分

1.0T

Rank: 1

积分
24
发表于 2018-6-1 15:11:40 | 显示全部楼层
我要下载8 }; ^+ `8 @' ]& G4 a
来自安卓客户端来自安卓客户端
回复

使用道具 举报

您需要登录后才可以回帖 登录 | 立即注册

本版积分规则

关闭

站长推荐上一条 /1 下一条