WEY车友会

 找回密码
 立即注册

QQ登录

只需一步,快速开始

扫码登录更安全

[无损音频] 朴树 - 生如夏花-美卡音像引进首版-WAV整轨

[复制链接]

参加活动:1

组织活动:5

168

主题

1430

帖子

1万

积分

超级版主

Rank: 8Rank: 8

积分
13089
发表于 2018-4-21 21:01:23 | 显示全部楼层 |阅读模式

马上注册,结交更多好友,享用更多功能,让你轻松玩转社区。

您需要 登录 才可以下载或查看,没有帐号?立即注册

x
1.png 1 y3 m0 T% ?+ j

# @5 t8 q, g2 C/ {* {CD: 朴树 - 生如夏花 [MKCD-T1942]5 b& U  d4 f* Y$ o. W* C( j8 a
     YEAR: 2003
- ]- {1 C; a! r+ ^: l3 ?1 h$ H7 @. B' k7 {* ]: |* @3 g% t" ~" Q+ h4 I% f
01. 傻子才悲伤    [0:03:59.53]
/ E. I$ ?4 G6 v8 L+ u: ]* ]# n02. 我爱你,再见    [0:04:52.23]
5 Z! y7 S- Q" q* f. ?, b; h03. 傲慢的上校    [0:04:52.32]
* ~. u8 f6 \) @$ n5 u/ V% Q) c04. 来不及    [0:05:46.14]
% g: x: u6 t1 M4 u  E8 E3 ?2 n05. Colorful Days    [0:03:55.20]( o3 I4 X6 Z. J" n# D8 ^
06. 今夜的滋味    [0:04:09.09]
7 }6 s" M% q9 R" X' ~: t. K07. 苏珊的舞鞋    [0:05:05.27]. L$ D* v# o1 z3 X
08. 生如夏花    [0:04:54.49]
$ x# r, s$ h! }, K  Z2 H1 g1 g: M09. 且听风吟    [0:03:43.41]% N+ U) r) ?0 s$ k
10. La Perte    [0:04:30.19]& x7 b% `) c% C# i4 @( f- }5 \$ q
11. 她在睡梦中    [0:03:32.27]
  e9 n$ Z& |8 \9 |; F2 u1 P***************************************************************3 R, v# |, X% k5 o; W* }
Exact Audio Copy V1.1 from 23. June 20159 k" G1 @9 S8 K, H$ N/ \/ C: E* h
! P, ^( }  `, p
EAC extraction logfile from 6. October 2016, 9:31
5 f* l+ I4 r9 C" Y4 S. Y( a3 G$ k) U( l2 c( n
朴树 / 生如夏花 [MKCD-T1942]: E& ^  I( e" B1 b7 ?9 C
0 F  J: ^$ W3 S0 w+ F3 N
Used drive  : TEAC    CD-W540E   Adapter: 0  ID: 08 O  F6 H7 J: V8 ~( x1 \
. F8 h! H2 Y: H) J- m  m# r
Read mode               : Secure; a+ L0 V( h8 y, s* v9 K3 q# z: x8 \
Utilize accurate stream : Yes
! G8 q* N( a/ O# k! j" k1 Z( }9 KDefeat audio cache      : Yes
4 ?0 J' n5 b  p- \Make use of C2 pointers : No* U' c( l. J' p7 W3 e1 _
+ ?. b( u. `: B
Read offset correction                      : 686
# C$ F/ P6 q- W, K5 i) a2 X" rOverread into Lead-In and Lead-Out          : No
5 v9 x5 s" v2 RFill up missing offset samples with silence : Yes8 ~' S# m9 x, G' a( r, }; o! g
Delete leading and trailing silent blocks   : No
' a6 o( P  k, [" I0 KNull samples used in CRC calculations       : Yes$ H/ w* q- f; m  C
Used interface                              : Installed external ASPI interface1 k4 i. s/ `9 m" A4 e8 H7 x
& K. U+ i) |: |6 b
Used output format : Internal WAV Routines
. M. g4 z6 j7 E0 X6 hSample format      : 44.100 Hz; 16 Bit; Stereo
6 O5 _5 h+ {5 T6 y4 N' N5 C+ k$ b5 K# e  E
) ?. }8 g+ n5 l5 ]! Y/ m% }
TOC of the extracted CD; N6 @- M8 _; @3 H: \( a. c9 M" L

/ [0 C9 R/ U. ~    Track |   Start  |  Length  | Start sector | End sector
. h1 ~1 i& s3 A3 e9 ]+ v+ K; d- V   ---------------------------------------------------------% Q) q$ j5 c9 w4 x+ \/ J
       1  |  0:00.00 |  3:59.53 |         0    |    17977   
0 l% K& x9 [# X: S0 M$ A       2  |  3:59.53 |  4:52.23 |     17978    |    39900   $ ^! t8 C% y( `" r  B
       3  |  8:52.01 |  4:52.32 |     39901    |    61832   
3 D1 F* l: Y& ], Y       4  | 13:44.33 |  5:46.14 |     61833    |    87796   
! d- C7 A% }/ X$ l+ Q& `       5  | 19:30.47 |  3:55.20 |     87797    |   105441   
7 R+ O9 [6 i$ h2 ~9 ]       6  | 23:25.67 |  4:09.09 |    105442    |   124125   
; a7 a: [$ F* M+ R: |       7  | 27:35.01 |  5:05.27 |    124126    |   147027   
) ]& s" K3 m2 ~5 c0 F' ]; K3 @* W       8  | 32:40.28 |  4:54.49 |    147028    |   169126   
( p- L0 w3 _( T4 {7 Q       9  | 37:35.02 |  3:43.41 |    169127    |   185892   
9 h! T% y1 \) J. G& U/ y      10  | 41:18.43 |  4:30.19 |    185893    |   206161   
( h- f6 L: a2 O3 m. R- g      11  | 45:48.62 |  3:32.27 |    206162    |   222088   
4 s. C) F: U* m
) S( P/ z) X: s2 O
9 k8 w( N3 r9 {2 n+ pRange status and errors
* U7 F; r  Y9 u& O( m
8 T3 @4 M* i/ R6 R+ H' c% k3 i% WSelected range/ F( C# b/ z1 M

1 ^$ |0 Y; h5 T6 r1 W  y    Filename D:\Music\朴树 - 生如夏花 [MKCD-T1942](美卡音像引进首版)Chris Wang原创\朴树 - 生如夏花 [MKCD-T1942].wav
  N) G! ?+ X1 f$ [# ^  z3 V) ]2 a
6 s- s1 w2 |" S% h6 R8 y    Peak level 100.0 %
$ h1 p7 I5 I: R4 o% i6 U! K    Extraction speed 1.2 X
- d, J6 z* h$ r7 o) y% i    Range quality 100.0 %; Z" G1 B1 b+ Q5 B
    Copy CRC 80B0B5ED5 |& v* @% O0 z  S
    Copy OK3 o% m9 e, V. R- D
( x* k% h  E7 A9 a# `/ }7 I
No errors occurred
6 t2 V) v/ b- j- l7 G, _2 T' G5 K: W/ C1 R' M  Z/ ]

4 ?; P* L2 N9 O, x& L1 V! p; t8 g1 j2 PAccurateRip summary  U$ J6 L, M' p1 G5 }" h9 {

# O* q5 ?0 Z0 t( g+ `8 L* C- W$ jTrack  1  accurately ripped (confidence 4)  [A6020CAD]  (AR v2)
1 D& X1 C  f0 L$ P% STrack  2  accurately ripped (confidence 4)  [B6DC1285]  (AR v2)( D( v6 i8 x( H: l
Track  3  accurately ripped (confidence 4)  [5C7CDB1A]  (AR v2)
0 T: F, K4 [3 {9 Q' z  qTrack  4  accurately ripped (confidence 4)  [2D0C8A37]  (AR v2)
+ u! h! W* R# _& k' vTrack  5  accurately ripped (confidence 4)  [08788222]  (AR v2)
8 Y5 c' v0 }, xTrack  6  accurately ripped (confidence 4)  [FF6C11E9]  (AR v2)
  w) @. }: ^" f& fTrack  7  accurately ripped (confidence 4)  [B2E9678C]  (AR v2): o- D$ u+ X/ Y$ T' a! X  Y1 t
Track  8  accurately ripped (confidence 4)  [5AD309BB]  (AR v2)7 M; p' j6 K3 L7 p/ C  i
Track  9  accurately ripped (confidence 4)  [F8F876F1]  (AR v2)7 t" _8 Z7 E, V; s& i; y& X
Track 10  accurately ripped (confidence 4)  [F311C328]  (AR v2)
5 A2 D& u6 g1 j. hTrack 11  accurately ripped (confidence 4)  [04145CC1]  (AR v2)
% s# l! q. @' h2 |: {! `
2 _& ]- N5 N2 hAll tracks accurately ripped
8 n; |0 C- e( M$ i! I0 t0 t/ X! ^" P( J
End of status report: ]/ V4 i4 {5 w5 ]

' Z  P  V6 {. |8 w---- CUETools DB Plugin V2.1.6, g% T+ M, G! P

1 O# ?# \8 ]1 Y- k% j' s[CTDB TOCID: 1NUQFvpRHAXoF_N10lD6enb6LEU-] found
! q' d# c0 e$ U) WSubmit result: 1NUQFvpRHAXoF_N10lD6enb6LEU- has been confirmed
" R- Y2 g# U$ XTrack | CTDB Status1 P) T4 c( j) L$ A1 H' y0 K
1   | (30/30) Accurately ripped
, `$ i& h/ G9 q9 n! k. e) l 2   | (30/30) Accurately ripped. L0 e: g  O. L; v, `1 _
3   | (30/30) Accurately ripped
' o9 {3 k: c$ p. P2 ? 4   | (30/30) Accurately ripped
  e- {/ K7 O7 G" ? 5   | (30/30) Accurately ripped' F" y6 C) }0 ~, V& N) R9 j
6   | (30/30) Accurately ripped
6 Z7 v7 e2 H+ r' g/ e* j 7   | (30/30) Accurately ripped8 t7 m# r4 K6 l; e% ~  N
8   | (30/30) Accurately ripped
2 J6 O& V3 U* v1 ^. r: Q+ S* G8 i 9   | (30/30) Accurately ripped: H5 U5 Z0 L( {5 D
10   | (28/30) Accurately ripped
5 Z% B* J' g0 }  Z  s" y# E3 G11   | (30/30) Accurately ripped
5 r3 ^5 j, r3 J
6 O- {$ r+ p* m; t: J$ u  }( d3 O& q- {
==== Log checksum 19207908511CD6A6D296D2A175EDF31C2465F6B69FC0E20650AEEA2C271090C8 ====; z4 H0 {2 P9 j8 O
) o" V  x. ^) e& \5 ^2 o
下载地址:
游客,如果您要查看本帖隐藏内容请回复

) @4 q$ t! z1 D* Q# d0 _" r6 V0 U
; L" c! J; k# `" ~% O: G' k6 [7 O
. f" l  n' ?# \2 Q1 n1 m; f

0 ^( ?, r7 _7 N6 A8 U
回复

使用道具 举报

参加活动:0

组织活动:0

5

主题

34

帖子

291

积分

1.5T

Rank: 3Rank: 3

积分
291
发表于 2018-4-25 16:32:05 | 显示全部楼层
我要下载/ \9 N! n* H/ {; S$ [5 C* E/ n' G. H
回复 支持 反对

使用道具 举报

参加活动:0

组织活动:0

0

主题

8

帖子

39

积分

1.0T

Rank: 1

积分
39
发表于 2018-4-25 20:33:09 | 显示全部楼层
我要下载- O8 r7 V& }1 \
回复 支持 反对

使用道具 举报

参加活动:0

组织活动:0

2

主题

13

帖子

72

积分

1.3T

Rank: 2

积分
72
发表于 2018-4-29 21:11:49 | 显示全部楼层
我要下载
" W7 Q' K9 ~( W: m) Z: _& y7 A
回复 支持 反对

使用道具 举报

参加活动:0

组织活动:0

0

主题

2

帖子

20

积分

1.0T

Rank: 1

积分
20
QQ
发表于 2018-5-9 11:03:05 | 显示全部楼层
我要下载,我要下载,我要下载
回复 支持 反对

使用道具 举报

参加活动:0

组织活动:0

0

主题

1

帖子

8

积分

1.0T

Rank: 1

积分
8
发表于 2018-5-28 02:28:43 来自手机 | 显示全部楼层
下载不了,为什么会这样了
回复 支持 反对

使用道具 举报

参加活动:0

组织活动:0

0

主题

4

帖子

24

积分

1.0T

Rank: 1

积分
24
发表于 2018-6-1 15:11:40 | 显示全部楼层
我要下载& ^& p9 z5 D' r, a" [8 D9 P
回复 支持 反对

使用道具 举报

参加活动:0

组织活动:0

0

主题

42

帖子

80

积分

1.3T

Rank: 2

积分
80
发表于 2019-10-16 09:39:36 | 显示全部楼层
好歌好听好资源好分享!!!
回复 支持 反对

使用道具 举报

参加活动:0

组织活动:0

0

主题

9

帖子

9

积分

1.0T

Rank: 1

积分
9
发表于 2020-2-23 00:02:44 | 显示全部楼层
很喜欢朴树的歌曲,这张尤其经典!
回复 支持 反对

使用道具 举报

参加活动:0

组织活动:0

1

主题

2

帖子

6

积分

1.0T

Rank: 1

积分
6
发表于 2021-9-10 14:35:58 | 显示全部楼层
本帖最后由 Bindz 于 2021-9-10 14:38 编辑
# s- F$ f! |3 W5 u$ W& H" g# d) s) Q- N# G( J/ J
朴树 - 生如夏花-美卡音像引进首版-WAV整轨,感谢分享!可是……链接失效了啊,请楼主补有效链接,谢谢!
" Q7 f$ ~; L# r, {
回复 支持 反对

使用道具 举报

您需要登录后才可以回帖 登录 | 立即注册

本版积分规则