请选择 进入手机版 | 继续访问电脑版

WEY车友会

 找回密码
 立即注册

QQ登录

只需一步,快速开始

扫码登录更安全

[无损音频] 朴树 - 生如夏花-美卡音像引进首版-WAV整轨

[复制链接]

参加活动:1

组织活动:5

154

主题

1178

帖子

8665

积分

管理员

Rank: 9Rank: 9Rank: 9

积分
8665
发表于 2018-4-21 21:01:23 | 显示全部楼层 |阅读模式

马上注册,结交更多好友,享用更多功能,让你轻松玩转社区。

您需要 登录 才可以下载或查看,没有帐号?立即注册

x
朴树 - 生如夏花-美卡音像引进首版-WAV整轨
* O- W; A2 g! I2 p' c
7 P) M  C1 V; r! wCD: 朴树 - 生如夏花 [MKCD-T1942]
+ v1 T, i4 y( j1 s- N     YEAR: 2003
' |7 x; `2 t' ]( b6 J% D7 o/ O: L& h
01. 傻子才悲伤    [0:03:59.53]
; \) E! r# L- J5 H02. 我爱你,再见    [0:04:52.23]
* |) N* H/ x: V) L4 O8 L' v' x, e03. 傲慢的上校    [0:04:52.32], W. T; z* R0 V. R  l3 a- _
04. 来不及    [0:05:46.14]
$ w* p! `" ]: g) H8 Z: J5 u05. Colorful Days    [0:03:55.20]% j. x0 T/ y! X0 f2 N5 \
06. 今夜的滋味    [0:04:09.09]) s" h# }+ g  ]7 f* r3 u
07. 苏珊的舞鞋    [0:05:05.27]
2 f2 ~; ~: g7 ]2 Z, Y08. 生如夏花    [0:04:54.49]
$ ]" f( C9 W; A% F; n4 S  f3 U7 ^09. 且听风吟    [0:03:43.41]8 R! Z6 g2 _2 J: g9 P3 m
10. La Perte    [0:04:30.19]
& ~2 c6 F2 Z8 u( r% T& F9 f, c11. 她在睡梦中    [0:03:32.27]" U* @1 F) A2 Y% K: v
***************************************************************
4 Y: }4 a: \/ j; o. V, u  j$ HExact Audio Copy V1.1 from 23. June 2015- R7 g5 z# V! F2 l3 f8 R
6 M0 q# o: M7 o( v! S$ D# n
EAC extraction logfile from 6. October 2016, 9:31* o, a# F0 ~; Z3 u; D! r* g
1 }9 v. D4 u" H3 e1 U' g7 j# y
朴树 / 生如夏花 [MKCD-T1942]
3 F6 I4 y, p% c# P9 w; d" y
5 a  V! `; p+ {$ C  l5 J/ o1 MUsed drive  : TEAC    CD-W540E   Adapter: 0  ID: 0+ s# Z4 W9 S; z0 Q

" i) K" r9 p( X! BRead mode               : Secure2 F7 c8 O0 m3 K/ y
Utilize accurate stream : Yes8 D3 e" \" K8 t6 E
Defeat audio cache      : Yes
+ ^5 o2 J. c. I/ F: L! NMake use of C2 pointers : No
+ K0 v( U, K; e1 g' @% D
. Q4 r8 n; O. N( S( uRead offset correction                      : 6862 h. `+ `. ?* M6 o
Overread into Lead-In and Lead-Out          : No
- v. B% m8 R( @$ @& I4 sFill up missing offset samples with silence : Yes
" F: Y0 \+ |: B' A6 e. FDelete leading and trailing silent blocks   : No  e+ ~. M0 N7 ]7 Y
Null samples used in CRC calculations       : Yes# @8 J0 B3 t! G
Used interface                              : Installed external ASPI interface7 i, b2 X! t2 i$ l
6 l  D. ]! t5 g  d5 {, e
Used output format : Internal WAV Routines
  l$ {  E4 X' V% j6 oSample format      : 44.100 Hz; 16 Bit; Stereo# H9 @8 c1 k+ r
* N: H6 g; W7 u+ n6 b5 O2 t+ k) E3 O
& t) r+ H9 [& ?4 I
TOC of the extracted CD
9 h7 E% k) Z! B" S4 X9 _% ?) E& _" r. |. c
    Track |   Start  |  Length  | Start sector | End sector
8 i7 d/ k# I9 d2 X7 G; k   ---------------------------------------------------------
8 B4 _- L* x+ W       1  |  0:00.00 |  3:59.53 |         0    |    17977   
6 V( ]$ U: ]. `8 F) ~) F       2  |  3:59.53 |  4:52.23 |     17978    |    39900   
& _& m) b4 y& _% b0 z  M       3  |  8:52.01 |  4:52.32 |     39901    |    61832   
' }, Z, e9 @( V$ m       4  | 13:44.33 |  5:46.14 |     61833    |    87796   
5 t5 m$ s! i' h- Z# D4 E       5  | 19:30.47 |  3:55.20 |     87797    |   105441   " Z& g6 }4 @  _6 R5 z
       6  | 23:25.67 |  4:09.09 |    105442    |   124125   ! |8 B4 @: e2 k0 n  O8 o- O# f
       7  | 27:35.01 |  5:05.27 |    124126    |   147027   
  l1 P) S7 A7 _' L       8  | 32:40.28 |  4:54.49 |    147028    |   169126   0 k& e& ]$ O3 t
       9  | 37:35.02 |  3:43.41 |    169127    |   185892   6 m5 l# M& C2 X; P6 y; n, b
      10  | 41:18.43 |  4:30.19 |    185893    |   206161   
& x, N3 n/ m/ i* |, s9 y4 D& P* A      11  | 45:48.62 |  3:32.27 |    206162    |   222088   " U5 }2 @+ g3 {

5 @( g3 O5 u, N4 M$ v1 O
4 |( d. Z- A' h$ x9 }- F$ |$ iRange status and errors
8 g# {& M# N, e4 e3 M) p3 q7 ~
$ U# ]7 r; \4 S( E4 ?0 {Selected range
+ Y8 |$ _$ b* r7 i& W: ]6 Y+ v* {6 v# ^- ~
    Filename D:\Music\朴树 - 生如夏花 [MKCD-T1942](美卡音像引进首版)Chris Wang原创\朴树 - 生如夏花 [MKCD-T1942].wav
8 E* T: G: ?) t6 H( P& ?7 E' F" f6 C; S4 N) L
    Peak level 100.0 %
% C! t) O: D* Q2 X) G9 I4 ^# Q    Extraction speed 1.2 X# O7 ~% `- b6 F6 o0 W% |  ~
    Range quality 100.0 %; Z. ?, X3 N8 \/ `/ c/ v
    Copy CRC 80B0B5ED
: @( e0 b$ k3 r8 x    Copy OK4 g) M: i8 ]0 q. P* x

7 e) q9 S& l4 o+ h8 q. Q+ O* P+ \No errors occurred
- v5 H6 i( X% ~* Y$ a
2 a. N/ X* S% m  C1 \
1 P; ~  J5 ~1 E" W- DAccurateRip summary4 `+ h: h7 V5 v9 U- p' K$ ]0 Q  J
; [" e+ l) m6 U7 E- p
Track  1  accurately ripped (confidence 4)  [A6020CAD]  (AR v2)
7 t$ a" ~+ L6 W6 |7 @, NTrack  2  accurately ripped (confidence 4)  [B6DC1285]  (AR v2)
  U  t: s7 Z2 `. a* l" @Track  3  accurately ripped (confidence 4)  [5C7CDB1A]  (AR v2)+ G7 ]' _9 F3 j* ?8 o
Track  4  accurately ripped (confidence 4)  [2D0C8A37]  (AR v2)2 m% J8 V& O$ L7 \, T, ^
Track  5  accurately ripped (confidence 4)  [08788222]  (AR v2)0 M0 H3 Y3 I8 R
Track  6  accurately ripped (confidence 4)  [FF6C11E9]  (AR v2)5 w9 r# z6 V: _- h' [2 p( g/ x* l2 `5 V2 J
Track  7  accurately ripped (confidence 4)  [B2E9678C]  (AR v2)
" R, \2 |7 i$ G( n/ `1 m5 F2 B9 cTrack  8  accurately ripped (confidence 4)  [5AD309BB]  (AR v2)
. X7 D; R2 Q5 f5 rTrack  9  accurately ripped (confidence 4)  [F8F876F1]  (AR v2)& ]' E' I) e' d* ?6 b
Track 10  accurately ripped (confidence 4)  [F311C328]  (AR v2)
) v: t/ p( r8 C: WTrack 11  accurately ripped (confidence 4)  [04145CC1]  (AR v2)) O; ~' N  h5 P* c% Z& S% b, ]* D
& r; Q" `/ M* C- G/ f
All tracks accurately ripped' a+ l2 T# U' F2 p/ t( l2 l5 U

" w* \9 @3 y: ^/ R" q# E* \End of status report$ w! e: W2 n, x$ H$ G
+ R: U/ v* {( }1 @
---- CUETools DB Plugin V2.1.6. y) p6 n* @/ j% a3 W7 H
* K1 m6 v# A: E8 [: }% ]6 z
[CTDB TOCID: 1NUQFvpRHAXoF_N10lD6enb6LEU-] found& {: w8 z' a& Y( l
Submit result: 1NUQFvpRHAXoF_N10lD6enb6LEU- has been confirmed# C+ t7 C& d; g5 I( t$ n( H" e2 J( R
Track | CTDB Status3 B+ ~3 _! R+ J
1   | (30/30) Accurately ripped
7 E% w; s- S( G3 p; b 2   | (30/30) Accurately ripped
) C7 }5 O. c' Y$ Q3 l& ~0 u$ f 3   | (30/30) Accurately ripped
+ g: ^. Y& [- w0 s5 x 4   | (30/30) Accurately ripped
! C; s2 |7 b) G/ S 5   | (30/30) Accurately ripped
1 L- i8 ^9 K# ~+ G) J 6   | (30/30) Accurately ripped7 N5 w- Z5 ]) z! N0 Y5 F
7   | (30/30) Accurately ripped
* {5 U) r  @2 T, C' p! z 8   | (30/30) Accurately ripped& I) O# w& a; ^" ^& p7 `% I
9   | (30/30) Accurately ripped: q0 M% `! I3 s9 s4 F. G. u
10   | (28/30) Accurately ripped4 e+ K8 T  H, {
11   | (30/30) Accurately ripped
3 |! C" ]* N  |3 c; ~' \  U- E/ D; T- P/ y* v/ @& u

/ Q* Q9 {* e3 t4 _& z" V==== Log checksum 19207908511CD6A6D296D2A175EDF31C2465F6B69FC0E20650AEEA2C271090C8 ====
5 |% b0 A& x% L& M1 j$ E( F
% X" z9 `. W; X下载地址:
游客,如果您要查看本帖隐藏内容请回复

' |$ [; L1 _% n
0 |2 C4 x  F2 C4 e* W% E/ B; S
# q! h, ~# Z& I: }" _
) z" d4 c5 S% X- i9 j" f' b* p
回复

使用道具 举报

参加活动:0

组织活动:0

3

主题

27

帖子

155

积分

1.3T

Rank: 2

积分
155
发表于 2018-4-25 16:32:05 | 显示全部楼层
我要下载
9 |4 L; ~! |; j
来自安卓客户端来自安卓客户端
回复

使用道具 举报

参加活动:0

组织活动:0

0

主题

8

帖子

39

积分

1.0T

Rank: 1

积分
39
发表于 2018-4-25 20:33:09 | 显示全部楼层
我要下载2 ^* Z* h' Z* z- H% n
来自苹果客户端来自苹果客户端
回复

使用道具 举报

参加活动:0

组织活动:0

2

主题

13

帖子

72

积分

1.3T

Rank: 2

积分
72
发表于 2018-4-29 21:11:49 | 显示全部楼层
我要下载6 K: Q. @: Y; C5 |
来自苹果客户端来自苹果客户端
回复

使用道具 举报

参加活动:0

组织活动:0

0

主题

2

帖子

20

积分

1.0T

Rank: 1

积分
20
QQ
发表于 2018-5-9 11:03:05 | 显示全部楼层
我要下载,我要下载,我要下载
回复

使用道具 举报

参加活动:0

组织活动:0

0

主题

1

帖子

8

积分

1.0T

Rank: 1

积分
8
发表于 2018-5-28 02:28:43 来自手机 | 显示全部楼层
下载不了,为什么会这样了
回复

使用道具 举报

参加活动:0

组织活动:0

0

主题

4

帖子

24

积分

1.0T

Rank: 1

积分
24
发表于 2018-6-1 15:11:40 | 显示全部楼层
我要下载
& k0 s+ r) ~2 K
来自安卓客户端来自安卓客户端
回复

使用道具 举报

您需要登录后才可以回帖 登录 | 立即注册

本版积分规则

关闭

站长推荐上一条 /1 下一条